» » » Dunkirk 2017 1080p Bluray x264 AAC Altyazılı - Film İndir

Dunkirk 2017 1080p Bluray x264 AAC Altyazılı - Film İndir



Yapım: 2017
Tür: Aksiyon, Dram, Tarihi, Gerilim, Savaş
Süre: 106 dk
IMDB Puanı: 8,2



2. Dünya Savaşı'nın ilk yıllarında Nazi Almanyası'nın net bir üstünlüğü vardır. Mayıs 1940'ta İngiltere, Kanada, Fransa ve Belçika'ya ait müttefik ordularından 400 bin asker, Fransa'nın İngiltere'ye çok yakın Dunkerque (Dunkirk) bölgesinde Alman Ordusu tarafından karadan tamamen kuşatılmıştır. Almanlar bu askerleri hava bombardımanlarıyla yok etmeyi planlarken, İngiliz Başbakanı Churchill'in yönlendirmesiyle askerleri kurtarabilmek için çok tehlikeli ve savaşın gelişimi açısından hayati önemde bir tahliye operasyonu başlatılır. Dunkirk, filmi, 2. Dünya Savaşı'nın seyrini etkileyen olaylardan Dunkirk Tahliyesi'ni karadan, havadan ve denizden farklı bakış açılarıyla izleyiciye aktarıyor.


Video
ID                                       : 1
Format                                   : AVC
Format/Info                              : Advanced Video Codec
Format profile                           : High@L4.1
Format settings                          : CABAC / 4 Ref Frames
Format settings, CABAC                   : Yes
Format settings, RefFrames               : 4 frames
Codec ID                                 : avc1
Codec ID/Info                            : Advanced Video Coding
Duration                                 : 1 h 46 min
Bit rate                                 : 2 500 kb/s
Width                                    : 1 920 pixels
Height                                   : 1 080 pixels
Display aspect ratio                     : 16:9
Frame rate mode                          : Constant
Frame rate                               : 23.976 (23976/1000) FPS
Color space                              : YUV
Chroma subsampling                       : 4:2:0
Bit depth                                : 8 bits
Scan type                                : Progressive
Bits/(Pixel*Frame)                       : 0.050
Stream size                              : 1.86 GiB (92%)
Writing library                          : x264 core 152 r2851M ba24899
Encoding settings                        : cabac=1 / ref=4 / deblock=1:-1:-1 / analyse=0x3:0x113 / me=umh / subme=9 / psy=1 / psy_rd=1.00:0.15 / mixed_ref=1 / me_range=24 / chroma_me=1 / trellis=2 / 8x8dct=1 / cqm=0 / deadzone=21,11 / fast_pskip=1 / chroma_qp_offset=-3 / threads=32 / lookahead_threads=4 / sliced_threads=0 / nr=0 / decimate=1 / interlaced=0 / bluray_compat=0 / constrained_intra=0 / bframes=3 / b_pyramid=2 / b_adapt=2 / b_bias=0 / direct=3 / weightb=1 / open_gop=0 / weightp=2 / keyint=250 / keyint_min=25 / scenecut=40 / intra_refresh=0 / rc_lookahead=50 / rc=2pass / mbtree=1 / bitrate=2500 / ratetol=1.0 / qcomp=0.60 / qpmin=0 / qpmax=69 / qpstep=4 / cplxblur=20.0 / qblur=0.5 / vbv_maxrate=31250 / vbv_bufsize=31250 / nal_hrd=none / filler=0 / ip_ratio=1.40 / aq=3:1.00
Encoded date                             : UTC 2017-12-05 03:36:07
Tagged date                              : UTC 2017-12-05 03:36:07

Audio
ID                                       : 2
Format                                   : AAC
Format/Info                              : Advanced Audio Codec
Format profile                           : LC
Codec ID                                 : mp4a-40-2
Duration                                 : 1 h 46 min
Bit rate mode                            : Constant
Bit rate                                 : 224 kb/s
Channel(s)                               : 2 channels
Channel(s)_Original                      : 6 channels
Channel positions                        : Front: L C R, Side: L R, LFE
Sampling rate                            : 48.0 kHz
Frame rate                               : 46.875 FPS (1024 SPF)
Compression mode                         : Lossy
Stream size                              : 171 MiB (8%)
Language                                 : English
Default                                  : Yes
Alternate group                          : 1
Encoded date                             : UTC 2017-12-05 03:36:07
Tagged date                              : UTC 2017-12-05 03:36:07



http://www.turkcealtyazi.org/mov/5013056/dunkirk.html


dunkirk_2017_1080p_bluray_h264_aac-filmdizini_com-.torrent [41,49 Kb] (Sayaç: 204)

Adınız:*
E-Mail:*

Kodu girin: *
Okunamayan kodu yenilemek için resmin üstüne tıklayınız